camdenchurches
» » Niagara - Quel Enfer!

Niagara - Quel Enfer! download album

Niagara  - Quel Enfer! download album
Performer:
Album:
Quel Enfer!
Style:
Chanson
Released:
1988
Country:
Europe
FLAC vers. size:
1906 mb
MP3 vers. size:
1533 mb
WMA vers. size:
1246 mb
Other formats
VOC RA AHX MP4 AAC MIDI AA
Rating:
4.7 ★
Votes:
125

Quel enfer ! (French for "What Hell!") is the second studio album by the French pop rock duo Niagara. It came out in 1988 on Polydor. Like all four of the band's studio albums, Quel enfer! was certified Gold in France

Album Name Quel Enfer ! Type Album. Дата релиза 18 Апрель 1988. Лейблы Polydor Polygram. Музыкальный стильPop Rock. Владельцы этого альбома7. 3. Flammes de l'Enfer.

Album Name Quel Enfer ! Type Album. Released date 18 April 1988. Labels Polydor Polygram. Members owning this album7. 4. La Fille Des Collines. 5. Au Royaume Des Sourds, les Borgnes Sont Rois.

Quel enfer ! Niagara. Quel enfer ! Tracklist.

Send to a friend: Niagara. Quel enfer! Album Lyrics. Niagara Other Songs A - U.

Niagara, Quel Enfer! Used drive : HL-DT-STDVD-RAM GH22NP20 Adapter: 0 ID: 0. Read mode : Secure Utilize accurate stream : Yes Defeat audio cache : Yes Make use of C2 pointers : N. PERFORMER "Niagara" INDEX 01 04:27:25 TRACK 03 AUDIO TITLE "Flammes de l'enfer" PERFORMER "Niagara" INDEX 01 08:13:05 TRACK 04 AUDIO TITLE "La fille des collines" PERFORMER "Niagara" INDEX 01 12:22:08 TRACK 05 AUDIO TITLE "Au royaume des sourds les borgnes sont rois" PERFORMER "Niagara" INDEX 01 15:54:73 TRACK 06 AUDIO TITLE "Baby Louis" PERFORMER.

Niagara's third album, Religion, was released in 1990; it marked a fuller progression from the synth pop of their first two records to a full-fledged guitar-driven rock sound. Niagara released what was to be their final album in 1992.

Tracklist

J'ai Tout Essayé 4:26
Assez! 3:44
Flammes De L'Enfer 4:08
La Fille Des Collines 3:32
Au Royaume Des Sourds Les Borgnes Sont Rois 5:10
Baby Louis 3:56
T.V. Addict 4:04
Soleil D'Hiver 4:10
Sois Beau Et Tais-Toi 2:46
Western 4:06

Versions

Category Artist Title (Format) Label Category Country Year
837 092-1 Niagara Quel Enfer! ‎(LP, Album) Metronome 837 092-1 Europe 1988
none Niagara Quel Enfer! ‎(Box, Promo + CD, Album, Promo, Car + CD, Single, C) Polydor none France 1988
837 092-2 Niagara Quel Enfer! ‎(CD, Album) Metronome 837 092-2 Europe 1988
837 092-2 Niagara Quel Enfer! ‎(CD, Album) Metronome 837 092-2 Germany 1988
835 743-2 Niagara Quel Enfer! ‎(CD, Album) Polydor 835 743-2 France 1988
TFK-8731 Niagara Quel Enfer! ‎(CD, Album) Trafic TFK-8731 Canada 1988
POOP20294 Niagara Quel Enfer! ‎(CD, Album) Polydor POOP20294 Japan 1988
TFWD-8731 Niagara Quel Enfer! ‎(CD, Album) Trafic TFWD-8731 Canada 1988
835 743-2 Niagara Quel Enfer! ‎(CD, Album) Polydor 835 743-2 France 1988
835 743-2 Niagara Quel Enfer! ‎(CD, Album, Promo, Car) Polydor 835 743-2 France 1988
TFC-8731 Niagara Quel Enfer! ‎(Cass, Album) Trafic TFC-8731 Canada 1988
835 743-4 Niagara Quel Enfer! ‎(Cass, Album) Polydor 835 743-4 France 1988
835 743-4 Niagara Quel Enfer! ‎(Cass, Album) Polydor 835 743-4 Spain 1988
TFT-8731 Niagara Quel Enfer! ‎(Cass, Album, CrO) Polydor Paris TFT-8731 Canada 1988
835 743-1 Niagara Quel Enfer! ‎(LP, Album) Polydor 835 743-1 Spain 1988
TF 8731 Niagara Quel Enfer! ‎(LP, Album) Trafic TF 8731 Canada 1988
835 743-1 Niagara Quel Enfer! ‎(LP, Album, Gat) Polydor 835 743-1 France 1988
374 531-0 Niagara Quel Enfer! ‎(LP, Ltd, Pic) Polydor 374 531-0 France 2013
835 743-2 Niagara Quel Enfer! ‎(Blu-ray, Blu-ray-A) Polydor 835 743-2 France 2014
478 778-7 Niagara Quel Enfer! ‎(LP, RE, RM, Gat) Polydor 478 778-7 France 2016